Just nu i M3-nätverket
Gå till innehåll

caligula

Medlem
  • Antal inlägg

    6
  • Gick med

  • Senaste besök

  1. Mambo Content management System är ett system för webbsidor där man kontrollerar sidan via en kontrollpanel tillgänglig via Internet. man behöver inga förkunskaper om hur man konstruerar en hemsida i html eller med andra hemsidorprogrm. Här några bilder som visar hur det kan se ut http://www.ismambo.frac.dk/index.php?option=com_content&task=view&id=14&Itemid=28 Det bästa är att bygga det själv om man har begränsad budget - men man måste sätta sig in i detta och i gengäld behöver man inte hjälp vid uppdateringar eller andra problem som kan uppdagas. Här är en tutorial hur man sätter upp detta och annan konfiguration p.s du får kanske att registrera dig för att kunna titta på dessa filmsnuttar i swf-format och på engelska. De bygger på mambo cms version 4.5.1. om du behöver ytterliggare info so kan du kontakta mig på mambodesign@gmail.com mvh Karl
  2. Ett bra och gratis webb system är Mambo CMS (open source) som man kan integrera t.ex med phpshop och oscommerce Till detta finns en hel del gratis templates och tutorials, även på svenska Här är några länkar för att komma igång http://mamboforge.net/ http://www.mambo-phpshop.net/ http://mos.portal.edu.jonkoping.se/component/option,com_home/Itemid,93/ http://forum.mamboserver.com/forumdisplay.php?f=132 http://www.svenskmambo.se/ mvh Karl
  3. Varför inte prova detta här: https://www.gotomypc.com Med detta kan du kontrollera din dator från var som helst och det på ett ganska säker sätt.
  4. Jag tror inte det har med Internet att göra även om en sida tar evighet att ladda upp så kan det ha med själva programmet (I.E.)att göra. Hur är det med andra program som Office? Tar det också lång tid att ladda upp (längre tid än normalt)? Om så, då kan du försöka att titta i Aktivitethanteraren och se om systemets vänteprocesser har fullt upp att göra, som leder till att allting kommer att ta tid, p.g.a att den tar programmen (aktiviteter) och exekeverar dem i en prioritets ordning. Försök att lista ut vilket program det är som boven i dramat - en gissning är Utforskaren. Utforskaren har varit ett stort problem som har tagit upp till 100% av CPU kapaciteten hos mig, som hos många andra som jag känner till. Om det är Utforskaren, försök att använda den så litet som möjligt, använd t.ex. "Total Commander" istället. Lycka till!
  5. cue/bin filer är image filer till att bränna i program som Nero eller Fireburner. Dessa filer (menas då med cue filen) kan se olika ut för om de är för film, pc spel eller pc program. cue-filen för film ser ut som här: FILE "FilmensFilNamn.bin" BINARY TRACK 01 MODE2/2352 INDEX 01 00:00:00 TRACK 02 MODE2/2352 INDEX 01 00:06:00 ----------------------------- cue-filen för PC spel ser ut så här: FILE "SpeletsFilNamn.BIN" BINARY TRACK 1 MODE2/2352 INDEX 1 00:00:00 ------------------------------------ och cue-filen för PC program ser ut så här: FILE "ProgrammetsFilNamn.BIN" BINARY TRACK 01 MODE1/2352 INDEX 01 00:00:00 -------------------------------- Ibalnd får man cue filer som kan se ut så här FILE "C:\Mapp\Filen.BIN" BINARY TRACK 01 MODE1/2352 INDEX 01 00:00:00 Då geller att ta bort C:\Mapp\ och spara sedan. MedC:\Mapp\ så visar den på en specifik plats för bin-filen med om du tar bort det då finner t.ex. Nero filen om de ligger i samma mapp som cue-filen. ------------ Man kan transformera cue/bin til mpg format med t.ex. VCDGear. Lycka till. [inlägget ändrat 2004-04-13 20:32:40 av caligula]
  6. Rar filer kommer normal i fyra (tre) varianter: 1. (file.r00 - file.rxx) + file.rar 2. file.part01.rar - file.partxx.rar 3. file.001 - file.xxx 4. file.rar (bara i en hel rara fil) Det krävs givetvis att du har WinRAR eller WinACE installerat (WinZIP duger inte). Till att packa upp dem då är bäst att högre klicka på: - i (1.) på file.rar och välja "Extract here" - i (2.) på första filen file.part01.rar och välja "Extract here" - i (3.) så måste du välja att använda winrar/winace som det program att packa upp filerna med och i där välja "Extract to" - i (4.) är bara att högre klicka och välja "Extract here" bin/cue filer är mycket sällan packade i många lager så om det är bin/cue fil som är inpackat så skall den synas direct. Med fler filer packade så följer ofta en svf-fil med med samma namn ocg filen men med ändelsen .sfv (file.sfv). Denna fil skall berätta för dig vilken fil specifik fil är korrupt, om någon av dem är det (det förekommer tyvärr ofta) och då är bara att hitta ny fil med samma namn igen (t.ex file.r24) och prova sedan att packa upp det igen. Detta är den stora fördelen med att packa i flera filer, du slipper att hämta hem en stor fil igen, bara den felande filen och man kan faktiskt hämta hem dem från flera källor samtidigt på grund av att de är uppdelade på detta viset. Ibland är första filen, men förkommer inte ofta, som en exe fil, som file.exe + file.r01 - file.rxx. När den är exe fil så förekommer han mera så en enskild fil och ser ut som rar-fil (ikonmässigt). Det gäller bara att lära sig attkäna igen dem bär man ser dem. Glöm inte att scanna dem först med ett AntiVirus program innan du packar upp dem speciellt om det är en enskild rar fil. Till slut, man skall absolut inte döpa om dem till någon annan fil ändelse. Har du fått en exe fil så är det inte bin/cue fil du har fått om den inte har varit packad i flera lager. Prova att högra klicka på exe filen och välaj att Extract here, men ha den i en egen mapp först så du får inte massor av filer över allt bland alla andra filer. Hoppas att det har varit till någon hjälp. Lycka till. [inlägget ändrat 2004-04-07 09:53:26 av caligula] [inlägget ändrat 2004-04-07 09:59:25 av caligula]
×
×
  • Skapa nytt...